RechercheRECHERCHE | PAGE EXTERNE | INSTANCE APP GDC EXT.
Recherche Vous pouvez également saisir ou scanner un code-barres afin de trouver un titre


Publicité/Liens sponsorisés

Impitoyable (Coffret collection signature) [WARNER,TECHNICOLOR][BD50:29.3] 2020 [5051889672029]

Sont évoqués ici UNIQUEMENT LES BLU RAY et les défectuosités relevées sur chacun
ImageFlux RSS de ce forum

Modérateurs : vivaldi21, bluraydefectueux

Règles du forum
Avant de saisir un blu-ray défectueux, veuillez consulter avant toute chose "l'index des titres défectueux" pour savoir si ce titre n'a pas déjà été référencé, ou faire une recherche dans l'un des moteurs.

Respecter les consignes de ce petit guide: Signaler et témoigner « proprement »

Ne pas publier d'adresses physiques, d'e-mail ou des noms dans cette partie du forum, la seule partie où vous pouvez le faire c'est dans "Les procédures et pistes d'échange "

Principe de fonctionnement
Avatar du membre
bluraydefectueux
Administrateur du site
Messages : 18965
Enregistré le : mar. 12 avr. 2016 14:19
Localisation : VAR (83)

Re: Impitoyable (Coffret collection signature) [WARNER,TECHNICOLOR][BD50:29.3] 2020 [5051889672029]

Message par bluraydefectueux »

alors ça c'est fort possible, et tu pourrais voir aussi peut-être une différence de CODECS ? entre les deux (AVC, VC1 etc..)

Pour une analyse de base donc juste l'affichage du contenu du BD, BDinfo ne nécessite pas de logiciel supplémentaire afin de neutraliser l'AACS ou autre, et en plus je crois qu'en plus y a pas besoin de l'installer, juste un *.exe à lancer !
Nombre de titres impactés: Je ne compte plus!

Re: Impitoyable (Coffret collection signature) [WARNER,TECHNICOLOR][BD50:29.3] 2020 [5051889672029]

Publicité

Publicité/Liens sponsorisés
 

Avatar du membre
Clyde
Messages : 2212
Enregistré le : mar. 23 févr. 2021 14:11

Re: Impitoyable (Coffret collection signature) [WARNER,TECHNICOLOR][BD50:29.3] 2020 [5051889672029]

Message par Clyde »

Voilà les codec Avc et l'autre VC1.

Version steelbook 4k
Image
Coffret Signature
Image
Clignotant à droite Clyde ! :roll:
Avatar du membre
bluraydefectueux
Administrateur du site
Messages : 18965
Enregistré le : mar. 12 avr. 2016 14:19
Localisation : VAR (83)

Re: Impitoyable (Coffret collection signature) [WARNER,TECHNICOLOR][BD50:29.3] 2020 [5051889672029]

Message par bluraydefectueux »

Ok, la différence tiens certainement en cela.
Nombre de titres impactés: Je ne compte plus!
Avatar du membre
Clyde
Messages : 2212
Enregistré le : mar. 23 févr. 2021 14:11

Re: Impitoyable (Coffret collection signature) [WARNER,TECHNICOLOR][BD50:29.3] 2020 [5051889672029]

Message par Clyde »

C'est bête, j'aurais pu regarder de suite avec la touche display de ma télécommande !
Clignotant à droite Clyde ! :roll:
Avatar du membre
bluraydefectueux
Administrateur du site
Messages : 18965
Enregistré le : mar. 12 avr. 2016 14:19
Localisation : VAR (83)

Re: Impitoyable (Coffret collection signature) [WARNER,TECHNICOLOR][BD50:29.3] 2020 [5051889672029]

Message par bluraydefectueux »

J'en reviens à BDinfo. tu verras la différence sur les fichiers. En tous les cas y a 14Go environ de différence.
Nombre de titres impactés: Je ne compte plus!
Avatar du membre
Clyde
Messages : 2212
Enregistré le : mar. 23 févr. 2021 14:11

Re: Impitoyable (Coffret collection signature) [WARNER,TECHNICOLOR][BD50:29.3] 2020 [5051889672029]

Message par Clyde »

Merci à toi
Clignotant à droite Clyde ! :roll:
Avatar du membre
vivaldi21
Messages : 526
Enregistré le : mar. 19 avr. 2016 16:44
Localisation : DIJON

Re: Impitoyable (Coffret collection signature) [WARNER,TECHNICOLOR][BD50:29.3] 2020 [5051889672029]

Message par vivaldi21 »

Ben oui, un petit coup de BDInfo ou MediaInfo, et on saura.
Sur internet, on trouve des remux du film (mais je sais pas de quelle édition) et je constate que l’audio anglaise DTS HDMA fait dans les 4 Go (quand même!). Mais les autres pistes audio ne sont pas dans ce format.
A la louche, un DD 5.1 fait dans les 1,5 Go, donc si l’édition précédente était dans ce format, il y a peut être aussi une partie des 14Go due à cet upgrade de la piste UK.
Et aussi, s’il y a x langues-audios qui ont été upgradées (j’ai vu des remux avec du 2.0, d’autres avec du 5.1), au final le cumul peut être important.
Nombre de titres impactés: 20 sur 500.. Palme d 'or à "Two lovers": 3 exemplaires défectueux de suite !
Avatar du membre
Clyde
Messages : 2212
Enregistré le : mar. 23 févr. 2021 14:11

Re: Impitoyable (Coffret collection signature) [WARNER,TECHNICOLOR][BD50:29.3] 2020 [5051889672029]

Message par Clyde »

L'édition Steelbook 35 395 436 544 Bytes pour les 2H 10

Code : Tout sélectionner

Disc Title:     UNFORGIVEN
Disc Size:      46 633 077 385 bytes
Protection:     AACS
BD-Java:        No
BDInfo:         0.5.8


                                                                                                                Total   Video                                             
Title                                                           Codec   Length  Movie Size      Disc Size       Bitrate Bitrate Main Audio Track                          Secondary Audio Track
-----                                                           ------  ------- --------------  --------------  ------- ------- ------------------                        ---------------------
00100.MPLS                                                      AVC     2:10:41 0               46 633 077 385  0,00    0,00    DTS-HD Master 5.1                         DD AC3 2.0

DISC INFO:

Disc Title:     UNFORGIVEN
Disc Size:      46 633 077 385 bytes
Protection:     AACS
BD-Java:        No
BDInfo:         0.5.8

PLAYLIST REPORT:

Name:                   00100.MPLS
Length:                 2:10:41.291 (h:m:s.ms)
Size:                   0 bytes
Total Bitrate:          0,00 Mbps

(*) Indicates included stream hidden by this playlist.

VIDEO:

Codec                   Bitrate             Description     
-----                   -------             -----------     
MPEG-4 AVC Video        0 kbps              1080p / 23,976 fps / 16:9

AUDIO:

Codec                           Language        Bitrate         Description     
-----                           --------        -------         -----------     
DTS-HD Master Audio             English         0 kbps          5.1 / 48 kHz    
Dolby Digital Audio             French          0 kbps          2.0 / 48 kHz    
Dolby Digital Audio             German          0 kbps          2.0 / 48 kHz    
Dolby Digital Audio             Italian         0 kbps          2.0 / 48 kHz    
Dolby Digital Audio             Spanish         0 kbps          2.0 / 48 kHz    
Dolby Digital Audio             Spanish         0 kbps          2.0 / 48 kHz    
Dolby Digital Audio             Czech           0 kbps          5.1 / 48 kHz    
Dolby Digital Audio             Hungarian       0 kbps          2.0 / 48 kHz    
Dolby Digital Audio             Polish          0 kbps          2.0 / 48 kHz    
Dolby Digital Audio             Russian         0 kbps          2.0 / 48 kHz    
Dolby Digital Audio             Thai            0 kbps          2.0 / 48 kHz    
* Dolby Digital Audio           Japanese        0 kbps          2.0 / 48 kHz    
Dolby Digital Audio             English         0 kbps          2.0 / 48 kHz    

SUBTITLES:

Codec                           Language        Bitrate         Description     
-----                           --------        -------         -----------     
* Presentation Graphics         Japanese        0,000 kbps                      
Presentation Graphics           English         0,000 kbps                      
Presentation Graphics           French          0,000 kbps                      
Presentation Graphics           German          0,000 kbps                      
Presentation Graphics           Italian         0,000 kbps                      
Presentation Graphics           Spanish         0,000 kbps                      
Presentation Graphics           Dutch           0,000 kbps                      
Presentation Graphics           Chinese         0,000 kbps                      
Presentation Graphics           Korean          0,000 kbps                      
Presentation Graphics           Spanish         0,000 kbps                      
Presentation Graphics           Arabic          0,000 kbps                      
Presentation Graphics           Czech           0,000 kbps                      
Presentation Graphics           Danish          0,000 kbps                      
Presentation Graphics           Finnish         0,000 kbps                      
Presentation Graphics           Greek           0,000 kbps                      
Presentation Graphics           Hebrew          0,000 kbps                      
Presentation Graphics           Hungarian       0,000 kbps                      
Presentation Graphics           Norwegian       0,000 kbps                      
Presentation Graphics           Polish          0,000 kbps                      
Presentation Graphics           Portuguese      0,000 kbps                      
Presentation Graphics           Romanian        0,000 kbps                      
Presentation Graphics           Russian         0,000 kbps                      
Presentation Graphics           Swedish         0,000 kbps                      
Presentation Graphics           Thai            0,000 kbps                      
Presentation Graphics           Turkish         0,000 kbps                      
* Presentation Graphics         Japanese        0,000 kbps                      
Presentation Graphics           French          0,000 kbps                      
Presentation Graphics           German          0,000 kbps                      
Presentation Graphics           Italian         0,000 kbps                      
Presentation Graphics           Spanish         0,000 kbps                      
Presentation Graphics           Thai            0,000 kbps                      
* Presentation Graphics         Japanese        0,000 kbps                      

FILES:

Name            Time In         Length          Size            Total Bitrate   
----            -------         ------          ----            -------------   
00052.M2TS      0:00:00.000     2:10:41.291     0               0               

CHAPTERS:

Number          Time In         Length          Avg Video Rate  Max 1-Sec Rate  Max 1-Sec Time  Max 5-Sec Rate  Max 5-Sec Time  Max 10Sec Rate  Max 10Sec Time  Avg Frame Size  Max Frame Size  Max Frame Time  
------          -------         ------          --------------  --------------  --------------  --------------  --------------  --------------  --------------  --------------  --------------  --------------  
1               0:00:00.000     0:01:11.905     0 kbps          0 kbps          00:00:00.000    0 kbps          00:00:00.000    0 kbps          00:00:00.000    0 bytes         0 bytes         00:00:00.000    
2               0:01:11.905     0:02:42.328     0 kbps          0 kbps          00:00:00.000    0 kbps          00:00:00.000    0 kbps          00:00:00.000    0 bytes         0 bytes         00:00:00.000    
3               0:03:54.234     0:03:06.811     0 kbps          0 kbps          00:00:00.000    0 kbps          00:00:00.000    0 kbps          00:00:00.000    0 bytes         0 bytes         00:00:00.000    
4               0:07:01.045     0:01:16.493     0 kbps          0 kbps          00:00:00.000    0 kbps          00:00:00.000    0 kbps          00:00:00.000    0 bytes         0 bytes         00:00:00.000    
5               0:08:17.538     0:05:53.061     0 kbps          0 kbps          00:00:00.000    0 kbps          00:00:00.000    0 kbps          00:00:00.000    0 bytes         0 bytes         00:00:00.000    
6               0:14:10.599     0:02:44.080     0 kbps          0 kbps          00:00:00.000    0 kbps          00:00:00.000    0 kbps          00:00:00.000    0 bytes         0 bytes         00:00:00.000    
7               0:16:54.680     0:07:23.818     0 kbps          0 kbps          00:00:00.000    0 kbps          00:00:00.000    0 kbps          00:00:00.000    0 bytes         0 bytes         00:00:00.000    
8               0:24:18.498     0:04:33.898     0 kbps          0 kbps          00:00:00.000    0 kbps          00:00:00.000    0 kbps          00:00:00.000    0 bytes         0 bytes         00:00:00.000    
9               0:28:52.397     0:02:49.627     0 kbps          0 kbps          00:00:00.000    0 kbps          00:00:00.000    0 kbps          00:00:00.000    0 bytes         0 bytes         00:00:00.000    
10              0:31:42.025     0:02:52.672     0 kbps          0 kbps          00:00:00.000    0 kbps          00:00:00.000    0 kbps          00:00:00.000    0 bytes         0 bytes         00:00:00.000    
11              0:34:34.697     0:04:19.259     0 kbps          0 kbps          00:00:00.000    0 kbps          00:00:00.000    0 kbps          00:00:00.000    0 bytes         0 bytes         00:00:00.000    
12              0:38:53.956     0:07:30.575     0 kbps          0 kbps          00:00:00.000    0 kbps          00:00:00.000    0 kbps          00:00:00.000    0 bytes         0 bytes         00:00:00.000    
13              0:46:24.531     0:07:19.439     0 kbps          0 kbps          00:00:00.000    0 kbps          00:00:00.000    0 kbps          00:00:00.000    0 bytes         0 bytes         00:00:00.000    
14              0:53:43.970     0:04:21.052     0 kbps          0 kbps          00:00:00.000    0 kbps          00:00:00.000    0 kbps          00:00:00.000    0 bytes         0 bytes         00:00:00.000    
15              0:58:05.023     0:02:19.681     0 kbps          0 kbps          00:00:00.000    0 kbps          00:00:00.000    0 kbps          00:00:00.000    0 bytes         0 bytes         00:00:00.000    
16              1:00:24.704     0:06:24.050     0 kbps          0 kbps          00:00:00.000    0 kbps          00:00:00.000    0 kbps          00:00:00.000    0 bytes         0 bytes         00:00:00.000    
17              1:06:48.754     0:02:47.333     0 kbps          0 kbps          00:00:00.000    0 kbps          00:00:00.000    0 kbps          00:00:00.000    0 bytes         0 bytes         00:00:00.000    
18              1:09:36.088     0:04:12.585     0 kbps          0 kbps          00:00:00.000    0 kbps          00:00:00.000    0 kbps          00:00:00.000    0 bytes         0 bytes         00:00:00.000    
19              1:13:48.674     0:07:10.930     0 kbps          0 kbps          00:00:00.000    0 kbps          00:00:00.000    0 kbps          00:00:00.000    0 bytes         0 bytes         00:00:00.000    
20              1:20:59.604     0:03:47.018     0 kbps          0 kbps          00:00:00.000    0 kbps          00:00:00.000    0 kbps          00:00:00.000    0 bytes         0 bytes         00:00:00.000    
21              1:24:46.623     0:04:52.041     0 kbps          0 kbps          00:00:00.000    0 kbps          00:00:00.000    0 kbps          00:00:00.000    0 bytes         0 bytes         00:00:00.000    
22              1:29:38.664     0:04:48.413     0 kbps          0 kbps          00:00:00.000    0 kbps          00:00:00.000    0 kbps          00:00:00.000    0 bytes         0 bytes         00:00:00.000    
23              1:34:27.078     0:01:43.645     0 kbps          0 kbps          00:00:00.000    0 kbps          00:00:00.000    0 kbps          00:00:00.000    0 bytes         0 bytes         00:00:00.000    
24              1:36:10.723     0:05:00.174     0 kbps          0 kbps          00:00:00.000    0 kbps          00:00:00.000    0 kbps          00:00:00.000    0 bytes         0 bytes         00:00:00.000    
25              1:41:10.898     0:02:02.789     0 kbps          0 kbps          00:00:00.000    0 kbps          00:00:00.000    0 kbps          00:00:00.000    0 bytes         0 bytes         00:00:00.000    
26              1:43:13.687     0:02:36.531     0 kbps          0 kbps          00:00:00.000    0 kbps          00:00:00.000    0 kbps          00:00:00.000    0 bytes         0 bytes         00:00:00.000    
27              1:45:50.218     0:03:28.875     0 kbps          0 kbps          00:00:00.000    0 kbps          00:00:00.000    0 kbps          00:00:00.000    0 bytes         0 bytes         00:00:00.000    
28              1:49:19.094     0:03:55.234     0 kbps          0 kbps          00:00:00.000    0 kbps          00:00:00.000    0 kbps          00:00:00.000    0 bytes         0 bytes         00:00:00.000    
29              1:53:14.329     0:01:19.746     0 kbps          0 kbps          00:00:00.000    0 kbps          00:00:00.000    0 kbps          00:00:00.000    0 bytes         0 bytes         00:00:00.000    
30              1:54:34.075     0:03:47.268     0 kbps          0 kbps          00:00:00.000    0 kbps          00:00:00.000    0 kbps          00:00:00.000    0 bytes         0 bytes         00:00:00.000    
31              1:58:21.344     0:03:51.314     0 kbps          0 kbps          00:00:00.000    0 kbps          00:00:00.000    0 kbps          00:00:00.000    0 bytes         0 bytes         00:00:00.000    
32              2:02:12.658     0:02:19.389     0 kbps          0 kbps          00:00:00.000    0 kbps          00:00:00.000    0 kbps          00:00:00.000    0 bytes         0 bytes         00:00:00.000    
33              2:04:32.047     0:06:09.243     0 kbps          0 kbps          00:00:00.000    0 kbps          00:00:00.000    0 kbps          00:00:00.000    0 bytes         0 bytes         00:00:00.000    

STREAM DIAGNOSTICS:

File            PID             Type            Codec           Language                Seconds                 Bitrate                 Bytes           Packets         
----            ---             ----            -----           --------                --------------          --------------          -------------   -----          
<---- END FORUMS PASTE ---->

QUICK SUMMARY:

Disc Title: UNFORGIVEN
Disc Size: 46 633 077 385 bytes
Protection: AACS
BD-Java: No
Playlist: 00100.MPLS
Size: 0 bytes
Length: 2:10:41.291
Total Bitrate: 0,00 Mbps
Video: MPEG-4 AVC Video / 0 kbps / 1080p / 23,976 fps / 16:9
Audio: English / DTS-HD Master Audio / 5.1 / 48 kHz
Audio: French / Dolby Digital Audio / 2.0 / 48 kHz
Audio: German / Dolby Digital Audio / 2.0 / 48 kHz
Audio: Italian / Dolby Digital Audio / 2.0 / 48 kHz
Audio: Spanish / Dolby Digital Audio / 2.0 / 48 kHz
Audio: Spanish / Dolby Digital Audio / 2.0 / 48 kHz
Audio: Czech / Dolby Digital Audio / 5.1 / 48 kHz
Audio: Hungarian / Dolby Digital Audio / 2.0 / 48 kHz
Audio: Polish / Dolby Digital Audio / 2.0 / 48 kHz
Audio: Russian / Dolby Digital Audio / 2.0 / 48 kHz
Audio: Thai / Dolby Digital Audio / 2.0 / 48 kHz
* Audio: Japanese / Dolby Digital Audio / 2.0 / 48 kHz
Audio: English / Dolby Digital Audio / 2.0 / 48 kHz
* Subtitle: Japanese / 0,000 kbps
Subtitle: English / 0,000 kbps
Subtitle: French / 0,000 kbps
Subtitle: German / 0,000 kbps
Subtitle: Italian / 0,000 kbps
Subtitle: Spanish / 0,000 kbps
Subtitle: Dutch / 0,000 kbps
Subtitle: Chinese / 0,000 kbps
Subtitle: Korean / 0,000 kbps
Subtitle: Spanish / 0,000 kbps
Subtitle: Arabic / 0,000 kbps
Subtitle: Czech / 0,000 kbps
Subtitle: Danish / 0,000 kbps
Subtitle: Finnish / 0,000 kbps
Subtitle: Greek / 0,000 kbps
Subtitle: Hebrew / 0,000 kbps
Subtitle: Hungarian / 0,000 kbps
Subtitle: Norwegian / 0,000 kbps
Subtitle: Polish / 0,000 kbps
Subtitle: Portuguese / 0,000 kbps
Subtitle: Romanian / 0,000 kbps
Subtitle: Russian / 0,000 kbps
Subtitle: Swedish / 0,000 kbps
Subtitle: Thai / 0,000 kbps
Subtitle: Turkish / 0,000 kbps
* Subtitle: Japanese / 0,000 kbps
Subtitle: French / 0,000 kbps
Subtitle: German / 0,000 kbps
Subtitle: Italian / 0,000 kbps
Subtitle: Spanish / 0,000 kbps
Subtitle: Thai / 0,000 kbps
* Subtitle: Japanese / 0,000 kbps


********************
PLAYLIST: 00101.MPLS
********************

<--- BEGIN FORUMS PASTE -
                                                                                                                Total   Video                                             
Title                                                           Codec   Length  Movie Size      Disc Size       Bitrate Bitrate Main Audio Track                          Secondary Audio Track
-----                                                           ------  ------- --------------  --------------  ------- ------- ------------------                        ---------------------
00101.MPLS                                                      AVC     2:10:41 0               46 633 077 385  0,00    0,00    DTS-HD Master 5.1                         DD AC3 2

DISC INFO:

Disc Title:     UNFORGIVEN
Disc Size:      46 633 077 385 bytes
Protection:     AACS
BD-Java:        No
BDInfo:         0.5.8

PLAYLIST REPORT:

Name:                   00101.MPLS
Length:                 2:10:41.291 (h:m:s.ms)
Size:                   0 bytes
Total Bitrate:          0,00 Mbps

(*) Indicates included stream hidden by this playlist.

VIDEO:

Codec                   Bitrate             Description     
-----                   -------             -----------     
MPEG-4 AVC Video        0 kbps              1080p / 23,976 fps / 16:9

AUDIO:

Codec                           Language        Bitrate         Description     
-----                           --------        -------         -----------     
DTS-HD Master Audio             English         0 kbps          5.1 / 48 kHz    
* Dolby Digital Audio           French          0 kbps          2.0 / 48 kHz    
* Dolby Digital Audio           German          0 kbps          2.0 / 48 kHz    
* Dolby Digital Audio           Italian         0 kbps          2.0 / 48 kHz    
* Dolby Digital Audio           Spanish         0 kbps          2.0 / 48 kHz    
* Dolby Digital Audio           Spanish         0 kbps          2.0 / 48 kHz    
* Dolby Digital Audio           Czech           0 kbps          5.1 / 48 kHz    
* Dolby Digital Audio           Hungarian       0 kbps          2.0 / 48 kHz    
* Dolby Digital Audio           Polish          0 kbps          2.0 / 48 kHz    
* Dolby Digital Audio           Russian         0 kbps          2.0 / 48 kHz    
* Dolby Digital Audio           Thai            0 kbps          2.0 / 48 kHz    
Dolby Digital Audio             Japanese        0 kbps          2.0 / 48 kHz    
Dolby Digital Audio             English         0 kbps          2.0 / 48 kHz    

SUBTITLES:

Codec                           Language        Bitrate         Description     
-----                           --------        -------         -----------     
Presentation Graphics           Japanese        0,000 kbps                      
Presentation Graphics           English         0,000 kbps                      
* Presentation Graphics         French          0,000 kbps                      
* Presentation Graphics         German          0,000 kbps                      
* Presentation Graphics         Italian         0,000 kbps                      
* Presentation Graphics         Spanish         0,000 kbps                      
* Presentation Graphics         Dutch           0,000 kbps                      
* Presentation Graphics         Chinese         0,000 kbps                      
* Presentation Graphics         Korean          0,000 kbps                      
* Presentation Graphics         Spanish         0,000 kbps                      
* Presentation Graphics         Arabic          0,000 kbps                      
* Presentation Graphics         Czech           0,000 kbps                      
* Presentation Graphics         Danish          0,000 kbps                      
* Presentation Graphics         Finnish         0,000 kbps                      
* Presentation Graphics         Greek           0,000 kbps                      
* Presentation Graphics         Hebrew          0,000 kbps                      
* Presentation Graphics         Hungarian       0,000 kbps                      
* Presentation Graphics         Norwegian       0,000 kbps                      
* Presentation Graphics         Polish          0,000 kbps                      
* Presentation Graphics         Portuguese      0,000 kbps                      
* Presentation Graphics         Romanian        0,000 kbps                      
* Presentation Graphics         Russian         0,000 kbps                      
* Presentation Graphics         Swedish         0,000 kbps                      
* Presentation Graphics         Thai            0,000 kbps                      
* Presentation Graphics         Turkish         0,000 kbps                      
Presentation Graphics           Japanese        0,000 kbps                      
* Presentation Graphics         French          0,000 kbps                      
* Presentation Graphics         German          0,000 kbps                      
* Presentation Graphics         Italian         0,000 kbps                      
* Presentation Graphics         Spanish         0,000 kbps                      
* Presentation Graphics         Thai            0,000 kbps                      
Presentation Graphics           Japanese        0,000 kbps                      

FILES:

Name            Time In         Length          Size            Total Bitrate   
----            -------         ------          ----            -------------   
00052.M2TS      0:00:00.000     2:10:41.291     0               0               

CHAPTERS:

Number          Time In         Length          Avg Video Rate  Max 1-Sec Rate  Max 1-Sec Time  Max 5-Sec Rate  Max 5-Sec Time  Max 10Sec Rate  Max 10Sec Time  Avg Frame Size  Max Frame Size  Max Frame Time  
------          -------         ------          --------------  --------------  --------------  --------------  --------------  --------------  --------------  --------------  --------------  --------------  
1               0:00:00.000     0:01:11.905     0 kbps          0 kbps          00:00:00.000    0 kbps          00:00:00.000    0 kbps          00:00:00.000    0 bytes         0 bytes         00:00:00.000    
2               0:01:11.905     0:02:42.328     0 kbps          0 kbps          00:00:00.000    0 kbps          00:00:00.000    0 kbps          00:00:00.000    0 bytes         0 bytes         00:00:00.000    
3               0:03:54.234     0:03:06.811     0 kbps          0 kbps          00:00:00.000    0 kbps          00:00:00.000    0 kbps          00:00:00.000    0 bytes         0 bytes         00:00:00.000    
4               0:07:01.045     0:01:16.493     0 kbps          0 kbps          00:00:00.000    0 kbps          00:00:00.000    0 kbps          00:00:00.000    0 bytes         0 bytes         00:00:00.000    
5               0:08:17.538     0:05:53.061     0 kbps          0 kbps          00:00:00.000    0 kbps          00:00:00.000    0 kbps          00:00:00.000    0 bytes         0 bytes         00:00:00.000    
6               0:14:10.599     0:02:44.080     0 kbps          0 kbps          00:00:00.000    0 kbps          00:00:00.000    0 kbps          00:00:00.000    0 bytes         0 bytes         00:00:00.000    
7               0:16:54.680     0:07:23.818     0 kbps          0 kbps          00:00:00.000    0 kbps          00:00:00.000    0 kbps          00:00:00.000    0 bytes         0 bytes         00:00:00.000    
8               0:24:18.498     0:04:33.898     0 kbps          0 kbps          00:00:00.000    0 kbps          00:00:00.000    0 kbps          00:00:00.000    0 bytes         0 bytes         00:00:00.000    
9               0:28:52.397     0:02:49.627     0 kbps          0 kbps          00:00:00.000    0 kbps          00:00:00.000    0 kbps          00:00:00.000    0 bytes         0 bytes         00:00:00.000    
10              0:31:42.025     0:02:52.672     0 kbps          0 kbps          00:00:00.000    0 kbps          00:00:00.000    0 kbps          00:00:00.000    0 bytes         0 bytes         00:00:00.000    
11              0:34:34.697     0:04:19.259     0 kbps          0 kbps          00:00:00.000    0 kbps          00:00:00.000    0 kbps          00:00:00.000    0 bytes         0 bytes         00:00:00.000    
12              0:38:53.956     0:07:30.575     0 kbps          0 kbps          00:00:00.000    0 kbps          00:00:00.000    0 kbps          00:00:00.000    0 bytes         0 bytes         00:00:00.000    
13              0:46:24.531     0:07:19.439     0 kbps          0 kbps          00:00:00.000    0 kbps          00:00:00.000    0 kbps          00:00:00.000    0 bytes         0 bytes         00:00:00.000    
14              0:53:43.970     0:04:21.052     0 kbps          0 kbps          00:00:00.000    0 kbps          00:00:00.000    0 kbps          00:00:00.000    0 bytes         0 bytes         00:00:00.000    
15              0:58:05.023     0:02:19.681     0 kbps          0 kbps          00:00:00.000    0 kbps          00:00:00.000    0 kbps          00:00:00.000    0 bytes         0 bytes         00:00:00.000    
16              1:00:24.704     0:06:24.050     0 kbps          0 kbps          00:00:00.000    0 kbps          00:00:00.000    0 kbps          00:00:00.000    0 bytes         0 bytes         00:00:00.000    
17              1:06:48.754     0:02:47.333     0 kbps          0 kbps          00:00:00.000    0 kbps          00:00:00.000    0 kbps          00:00:00.000    0 bytes         0 bytes         00:00:00.000    
18              1:09:36.088     0:04:12.585     0 kbps          0 kbps          00:00:00.000    0 kbps          00:00:00.000    0 kbps          00:00:00.000    0 bytes         0 bytes         00:00:00.000    
19              1:13:48.674     0:07:10.930     0 kbps          0 kbps          00:00:00.000    0 kbps          00:00:00.000    0 kbps          00:00:00.000    0 bytes         0 bytes         00:00:00.000    
20              1:20:59.604     0:03:47.018     0 kbps          0 kbps          00:00:00.000    0 kbps          00:00:00.000    0 kbps          00:00:00.000    0 bytes         0 bytes         00:00:00.000    
21              1:24:46.623     0:04:52.041     0 kbps          0 kbps          00:00:00.000    0 kbps          00:00:00.000    0 kbps          00:00:00.000    0 bytes         0 bytes         00:00:00.000    
22              1:29:38.664     0:04:48.413     0 kbps          0 kbps          00:00:00.000    0 kbps          00:00:00.000    0 kbps          00:00:00.000    0 bytes         0 bytes         00:00:00.000    
23              1:34:27.078     0:01:43.645     0 kbps          0 kbps          00:00:00.000    0 kbps          00:00:00.000    0 kbps          00:00:00.000    0 bytes         0 bytes         00:00:00.000    
24              1:36:10.723     0:05:00.174     0 kbps          0 kbps          00:00:00.000    0 kbps          00:00:00.000    0 kbps          00:00:00.000    0 bytes         0 bytes         00:00:00.000    
25              1:41:10.898     0:02:02.789     0 kbps          0 kbps          00:00:00.000    0 kbps          00:00:00.000    0 kbps          00:00:00.000    0 bytes         0 bytes         00:00:00.000    
26              1:43:13.687     0:02:36.531     0 kbps          0 kbps          00:00:00.000    0 kbps          00:00:00.000    0 kbps          00:00:00.000    0 bytes         0 bytes         00:00:00.000    
27              1:45:50.218     0:03:28.875     0 kbps          0 kbps          00:00:00.000    0 kbps          00:00:00.000    0 kbps          00:00:00.000    0 bytes         0 bytes         00:00:00.000    
28              1:49:19.094     0:03:55.234     0 kbps          0 kbps          00:00:00.000    0 kbps          00:00:00.000    0 kbps          00:00:00.000    0 bytes         0 bytes         00:00:00.000    
29              1:53:14.329     0:01:19.746     0 kbps          0 kbps          00:00:00.000    0 kbps          00:00:00.000    0 kbps          00:00:00.000    0 bytes         0 bytes         00:00:00.000    
30              1:54:34.075     0:03:47.268     0 kbps          0 kbps          00:00:00.000    0 kbps          00:00:00.000    0 kbps          00:00:00.000    0 bytes         0 bytes         00:00:00.000    
31              1:58:21.344     0:03:51.314     0 kbps          0 kbps          00:00:00.000    0 kbps          00:00:00.000    0 kbps          00:00:00.000    0 bytes         0 bytes         00:00:00.000    
32              2:02:12.658     0:02:19.389     0 kbps          0 kbps          00:00:00.000    0 kbps          00:00:00.000    0 kbps          00:00:00.000    0 bytes         0 bytes         00:00:00.000    
33              2:04:32.047     0:06:09.243     0 kbps          0 kbps          00:00:00.000    0 kbps          00:00:00.000    0 kbps          00:00:00.000    0 bytes         0 bytes         00:00:00.000    

STREAM DIAGNOSTICS:

File            PID             Type            Codec           Language                Seconds                 Bitrate                 Bytes           Packets         
----            ---             ----            -----           --------                --------------          --------------          -------------   -----         
<---- END FORUMS PASTE ---->

QUICK SUMMARY:

Disc Title: UNFORGIVEN
Disc Size: 46 633 077 385 bytes
Protection: AACS
BD-Java: No
Playlist: 00101.MPLS
Size: 0 bytes
Length: 2:10:41.291
Total Bitrate: 0,00 Mbps
Video: MPEG-4 AVC Video / 0 kbps / 1080p / 23,976 fps / 16:9
Audio: English / DTS-HD Master Audio / 5.1 / 48 kHz
* Audio: French / Dolby Digital Audio / 2.0 / 48 kHz
* Audio: German / Dolby Digital Audio / 2.0 / 48 kHz
* Audio: Italian / Dolby Digital Audio / 2.0 / 48 kHz
* Audio: Spanish / Dolby Digital Audio / 2.0 / 48 kHz
* Audio: Spanish / Dolby Digital Audio / 2.0 / 48 kHz
* Audio: Czech / Dolby Digital Audio / 5.1 / 48 kHz
* Audio: Hungarian / Dolby Digital Audio / 2.0 / 48 kHz
* Audio: Polish / Dolby Digital Audio / 2.0 / 48 kHz
* Audio: Russian / Dolby Digital Audio / 2.0 / 48 kHz
* Audio: Thai / Dolby Digital Audio / 2.0 / 48 kHz
Audio: Japanese / Dolby Digital Audio / 2.0 / 48 kHz
Audio: English / Dolby Digital Audio / 2.0 / 48 kHz
Subtitle: Japanese / 0,000 kbps
Subtitle: English / 0,000 kbps
* Subtitle: French / 0,000 kbps
* Subtitle: German / 0,000 kbps
* Subtitle: Italian / 0,000 kbps
* Subtitle: Spanish / 0,000 kbps
* Subtitle: Dutch / 0,000 kbps
* Subtitle: Chinese / 0,000 kbps
* Subtitle: Korean / 0,000 kbps
* Subtitle: Spanish / 0,000 kbps
* Subtitle: Arabic / 0,000 kbps
* Subtitle: Czech / 0,000 kbps
* Subtitle: Danish / 0,000 kbps
* Subtitle: Finnish / 0,000 kbps
* Subtitle: Greek / 0,000 kbps
* Subtitle: Hebrew / 0,000 kbps
* Subtitle: Hungarian / 0,000 kbps
* Subtitle: Norwegian / 0,000 kbps
* Subtitle: Polish / 0,000 kbps
* Subtitle: Portuguese / 0,000 kbps
* Subtitle: Romanian / 0,000 kbps
* Subtitle: Russian / 0,000 kbps
* Subtitle: Swedish / 0,000 kbps
* Subtitle: Thai / 0,000 kbps
* Subtitle: Turkish / 0,000 kbps
Subtitle: Japanese / 0,000 kbps
* Subtitle: French / 0,000 kbps
* Subtitle: German / 0,000 kbps
* Subtitle: Italian / 0,000 kbps
* Subtitle: Spanish / 0,000 kbps
* Subtitle: Thai / 0,000 kbps
Subtitle: Japanese / 0,000 kbps

Celle de l'édition signature 18 876 211 200 Bytes pour 2H 10 de film

Code : Tout sélectionner

Disc Title:     VOLUME_ID
Disc Size:      31 408 556 572 bytes
Protection:     AACS
BD-Java:        No
BDInfo:         0.5.8

                                                                                                                Total   Video                                             
Title                                                           Codec   Length  Movie Size      Disc Size       Bitrate Bitrate Main Audio Track                          Secondary Audio Track
-----                                                           ------  ------- --------------  --------------  ------- ------- ------------------                        ---------------------
00001.MPLS                                                      VC-1    2:10:40 0               31 408 556 572  0,00    0,00    DD AC3 5.1                                DD AC3 2.0

DISC INFO:

Disc Title:     VOLUME_ID
Disc Size:      31 408 556 572 bytes
Protection:     AACS
BD-Java:        No
BDInfo:         0.5.8

PLAYLIST REPORT:

Name:                   00001.MPLS
Length:                 2:10:40.624 (h:m:s.ms)
Size:                   0 bytes
Total Bitrate:          0,00 Mbps

VIDEO:

Codec                   Bitrate             Description     
-----                   -------             -----------     
VC-1 Video              0 kbps              1080p / 23,976 fps / 16:9

AUDIO:

Codec                           Language        Bitrate         Description     
-----                           --------        -------         -----------     
Dolby Digital Audio             English         0 kbps          5.1 / 48 kHz    
Dolby Digital Audio             French          0 kbps          2.0 / 48 kHz    
Dolby Digital Audio             German          0 kbps          2.0 / 48 kHz    
Dolby Digital Audio             Italian         0 kbps          2.0 / 48 kHz    
Dolby Digital Audio             Spanish         0 kbps          2.0 / 48 kHz    
Dolby Digital Audio             English         0 kbps          2.0 / 48 kHz    

SUBTITLES:

Codec                           Language        Bitrate         Description     
-----                           --------        -------         -----------     
Presentation Graphics           English         0,000 kbps                      
Presentation Graphics           English         0,000 kbps                      
Presentation Graphics           French          0,000 kbps                      
Presentation Graphics           German          0,000 kbps                      
Presentation Graphics           German          0,000 kbps                      
Presentation Graphics           Italian         0,000 kbps                      
Presentation Graphics           Italian         0,000 kbps                      
Presentation Graphics           Spanish         0,000 kbps                      
Presentation Graphics           Dutch           0,000 kbps                      
Presentation Graphics           Danish          0,000 kbps                      
Presentation Graphics           Finnish         0,000 kbps                      
Presentation Graphics           Norwegian       0,000 kbps                      
Presentation Graphics           Swedish         0,000 kbps                      

FILES:

Name            Time In         Length          Size            Total Bitrate   
----            -------         ------          ----            -------------   
00002.M2TS      0:00:00.000     2:10:40.624     0               0               

CHAPTERS:

Number          Time In         Length          Avg Video Rate  Max 1-Sec Rate  Max 1-Sec Time  Max 5-Sec Rate  Max 5-Sec Time  Max 10Sec Rate  Max 10Sec Time  Avg Frame Size  Max Frame Size  Max Frame Time  
------          -------         ------          --------------  --------------  --------------  --------------  --------------  --------------  --------------  --------------  --------------  --------------  
1               0:00:00.000     0:01:11.863     0 kbps          0 kbps          00:00:00.000    0 kbps          00:00:00.000    0 kbps          00:00:00.000    0 bytes         0 bytes         00:00:00.000    
2               0:01:11.863     0:02:42.495     0 kbps          0 kbps          00:00:00.000    0 kbps          00:00:00.000    0 kbps          00:00:00.000    0 bytes         0 bytes         00:00:00.000    
3               0:03:54.359     0:03:07.020     0 kbps          0 kbps          00:00:00.000    0 kbps          00:00:00.000    0 kbps          00:00:00.000    0 bytes         0 bytes         00:00:00.000    
4               0:07:01.379     0:01:16.242     0 kbps          0 kbps          00:00:00.000    0 kbps          00:00:00.000    0 kbps          00:00:00.000    0 bytes         0 bytes         00:00:00.000    
5               0:08:17.622     0:05:53.186     0 kbps          0 kbps          00:00:00.000    0 kbps          00:00:00.000    0 kbps          00:00:00.000    0 bytes         0 bytes         00:00:00.000    
6               0:14:10.808     0:02:43.997     0 kbps          0 kbps          00:00:00.000    0 kbps          00:00:00.000    0 kbps          00:00:00.000    0 bytes         0 bytes         00:00:00.000    
7               0:16:54.805     0:07:23.776     0 kbps          0 kbps          00:00:00.000    0 kbps          00:00:00.000    0 kbps          00:00:00.000    0 bytes         0 bytes         00:00:00.000    
8               0:24:18.582     0:04:34.107     0 kbps          0 kbps          00:00:00.000    0 kbps          00:00:00.000    0 kbps          00:00:00.000    0 bytes         0 bytes         00:00:00.000    
9               0:28:52.689     0:02:49.669     0 kbps          0 kbps          00:00:00.000    0 kbps          00:00:00.000    0 kbps          00:00:00.000    0 bytes         0 bytes         00:00:00.000    
10              0:31:42.358     0:02:52.505     0 kbps          0 kbps          00:00:00.000    0 kbps          00:00:00.000    0 kbps          00:00:00.000    0 bytes         0 bytes         00:00:00.000    
11              0:34:34.864     0:04:19.259     0 kbps          0 kbps          00:00:00.000    0 kbps          00:00:00.000    0 kbps          00:00:00.000    0 bytes         0 bytes         00:00:00.000    
12              0:38:54.123     0:07:30.783     0 kbps          0 kbps          00:00:00.000    0 kbps          00:00:00.000    0 kbps          00:00:00.000    0 bytes         0 bytes         00:00:00.000    
13              0:46:24.907     0:07:19.439     0 kbps          0 kbps          00:00:00.000    0 kbps          00:00:00.000    0 kbps          00:00:00.000    0 bytes         0 bytes         00:00:00.000    
14              0:53:44.346     0:04:20.927     0 kbps          0 kbps          00:00:00.000    0 kbps          00:00:00.000    0 kbps          00:00:00.000    0 bytes         0 bytes         00:00:00.000    
15              0:58:05.273     0:02:19.639     0 kbps          0 kbps          00:00:00.000    0 kbps          00:00:00.000    0 kbps          00:00:00.000    0 bytes         0 bytes         00:00:00.000    
16              1:00:24.912     0:06:24.217     0 kbps          0 kbps          00:00:00.000    0 kbps          00:00:00.000    0 kbps          00:00:00.000    0 bytes         0 bytes         00:00:00.000    
17              1:06:49.130     0:02:47.166     0 kbps          0 kbps          00:00:00.000    0 kbps          00:00:00.000    0 kbps          00:00:00.000    0 bytes         0 bytes         00:00:00.000    
18              1:09:36.297     0:04:12.585     0 kbps          0 kbps          00:00:00.000    0 kbps          00:00:00.000    0 kbps          00:00:00.000    0 bytes         0 bytes         00:00:00.000    
19              1:13:48.882     0:07:10.930     0 kbps          0 kbps          00:00:00.000    0 kbps          00:00:00.000    0 kbps          00:00:00.000    0 bytes         0 bytes         00:00:00.000    
20              1:20:59.813     0:03:47.060     0 kbps          0 kbps          00:00:00.000    0 kbps          00:00:00.000    0 kbps          00:00:00.000    0 bytes         0 bytes         00:00:00.000    
21              1:24:46.873     0:04:52.125     0 kbps          0 kbps          00:00:00.000    0 kbps          00:00:00.000    0 kbps          00:00:00.000    0 bytes         0 bytes         00:00:00.000    
22              1:29:38.998     0:04:48.454     0 kbps          0 kbps          00:00:00.000    0 kbps          00:00:00.000    0 kbps          00:00:00.000    0 bytes         0 bytes         00:00:00.000    
23              1:34:27.453     0:01:43.436     0 kbps          0 kbps          00:00:00.000    0 kbps          00:00:00.000    0 kbps          00:00:00.000    0 bytes         0 bytes         00:00:00.000    
24              1:36:10.890     0:05:00.299     0 kbps          0 kbps          00:00:00.000    0 kbps          00:00:00.000    0 kbps          00:00:00.000    0 bytes         0 bytes         00:00:00.000    
25              1:41:11.190     0:02:02.622     0 kbps          0 kbps          00:00:00.000    0 kbps          00:00:00.000    0 kbps          00:00:00.000    0 bytes         0 bytes         00:00:00.000    
26              1:43:13.812     0:02:36.656     0 kbps          0 kbps          00:00:00.000    0 kbps          00:00:00.000    0 kbps          00:00:00.000    0 bytes         0 bytes         00:00:00.000    
27              1:45:50.469     0:03:28.875     0 kbps          0 kbps          00:00:00.000    0 kbps          00:00:00.000    0 kbps          00:00:00.000    0 bytes         0 bytes         00:00:00.000    
28              1:49:19.344     0:03:55.401     0 kbps          0 kbps          00:00:00.000    0 kbps          00:00:00.000    0 kbps          00:00:00.000    0 bytes         0 bytes         00:00:00.000    
29              1:53:14.746     0:01:19.579     0 kbps          0 kbps          00:00:00.000    0 kbps          00:00:00.000    0 kbps          00:00:00.000    0 bytes         0 bytes         00:00:00.000    
30              1:54:34.325     0:03:47.393     0 kbps          0 kbps          00:00:00.000    0 kbps          00:00:00.000    0 kbps          00:00:00.000    0 bytes         0 bytes         00:00:00.000    
31              1:58:21.719     0:03:51.397     0 kbps          0 kbps          00:00:00.000    0 kbps          00:00:00.000    0 kbps          00:00:00.000    0 bytes         0 bytes         00:00:00.000    
32              2:02:13.117     0:02:19.138     0 kbps          0 kbps          00:00:00.000    0 kbps          00:00:00.000    0 kbps          00:00:00.000    0 bytes         0 bytes         00:00:00.000    
33              2:04:32.256     0:06:08.368     0 kbps          0 kbps          00:00:00.000    0 kbps          00:00:00.000    0 kbps          00:00:00.000    0 bytes         0 bytes         00:00:00.000    

STREAM DIAGNOSTICS:

File            PID             Type            Codec           Language                Seconds                 Bitrate                 Bytes           Packets         
----            ---             ----            -----           --------                --------------          --------------          -------------   -----       
<---- END FORUMS PASTE ---->

QUICK SUMMARY:

Disc Title: VOLUME_ID
Disc Size: 31 408 556 572 bytes
Protection: AACS
BD-Java: No
Playlist: 00001.MPLS
Size: 0 bytes
Length: 2:10:40.624
Total Bitrate: 0,00 Mbps
Video: VC-1 Video / 0 kbps / 1080p / 23,976 fps / 16:9
Audio: English / Dolby Digital Audio / 5.1 / 48 kHz
Audio: French / Dolby Digital Audio / 2.0 / 48 kHz
Audio: German / Dolby Digital Audio / 2.0 / 48 kHz
Audio: Italian / Dolby Digital Audio / 2.0 / 48 kHz
Audio: Spanish / Dolby Digital Audio / 2.0 / 48 kHz
Audio: English / Dolby Digital Audio / 2.0 / 48 kHz
Subtitle: English / 0,000 kbps
Subtitle: English / 0,000 kbps
Subtitle: French / 0,000 kbps
Subtitle: German / 0,000 kbps
Subtitle: German / 0,000 kbps
Subtitle: Italian / 0,000 kbps
Subtitle: Italian / 0,000 kbps
Subtitle: Spanish / 0,000 kbps
Subtitle: Dutch / 0,000 kbps
Subtitle: Danish / 0,000 kbps
Subtitle: Finnish / 0,000 kbps
Subtitle: Norwegian / 0,000 kbps
Subtitle: Swedish / 0,000 kbps
Clignotant à droite Clyde ! :roll:
Avatar du membre
bluraydefectueux
Administrateur du site
Messages : 18965
Enregistré le : mar. 12 avr. 2016 14:19
Localisation : VAR (83)

Re: Impitoyable (Coffret collection signature) [WARNER,TECHNICOLOR][BD50:29.3] 2020 [5051889672029]

Message par bluraydefectueux »

Entendu, ont est sûrs d'où provient la différence. (j'ai retiré les lignes en erreurs)
Nombre de titres impactés: Je ne compte plus!
Avatar du membre
Clyde
Messages : 2212
Enregistré le : mar. 23 févr. 2021 14:11

Re: Impitoyable (Coffret collection signature) [WARNER,TECHNICOLOR][BD50:29.3] 2020 [5051889672029]

Message par Clyde »

HORS SUJET:
dsl, j'aurais pu les retirer moi même et faire le tri, c'est vrai y a du laisser aller de ma part !

Sinon concernant le décryptage des protections AACS des BDs, techniquement je sais pas comment cela fonctionne exactement, je me demande , lors des analyses du taux transfert sous OCD si elles ne jouent pas un rôle perturbateurs certaines fois sur les résultats.
Par exemple quand la vitesse de rotation est fluctuante pour x raison ainsi le résultat en être affecté.
Tu pourras me dire que ces protections n'interviennent pas dans de simple tests mais en tout cas, c'est mon ressenti, qu'elles sont bien présentes et que le drive peut avoir même beaucoup de difficulté à accrocher au démarrage d'un scan.
ce système peut il être en cause ?
Une évidence pour dire que ces systèmes anti-copie pour ''rester poli''sont bien pénible .
Clignotant à droite Clyde ! :roll:

Retourner vers « BLU-RAY défectueux »